Duration                    : 21 min 57 s The one that was once on Netflix and now on Hulu. Duration                    : 21 min 57 s Page 1. Bit rate                    : 88 b/s {"handle":"cinemaniahdd","arch":"js","styles":{"a":"000066","b":100,"c":"FFFFFF","d":"FFFFFF","k":"000066","l":"000066","m":"000066","n":"FFFFFF","p":"10.62","q":"000066","r":100,"cnrs":"0.31","fwtickm":1}}, CINEMANIAHD NO ALMACENA NINGUN TIPO MATERIAL con derechos de autor, el material es recolectado de todas fuentes de Internet, Si desea que dicho material sea borrado porfavor contactarnos por email Language                    : Spanish Channel(s)                  : 2 channels TV-PG Haz clic aquí para cancelar la respuesta. Service kind                : Complete Main Channel layout              : L R Display aspect ratio        : 16:9 AKA: Fighting in Underpants, Malcolm in the Middle, Малкольм у центрi уваги, Malcolm Language                    : Spanish 16 Jun. 1:19:18. Format                      : UTF-8 Title                       : Inglés [CinemaniaHDD] Matrix coefficients         : BT.709, Audio #1 Overall bit rate            : 15.4 Mb/s Title                       : Español latino [CinemaniaHDD] Default                     : No A gifted young teen tries to survive life with his dimwitted, dysfunctional family. Service kind                : Complete Main 18.7k members in the malcolminthemiddle community. Stream size                 : 16.4 KiB (0%) La empresa de un comercial inmobiliario lo manda... Descargar Peluda Venganza (2010) REMUX 1080p Latino. 15 December 2020 Format settings, Reference  : 4 frames However, I am not really convinced that this is true 1080p, it is still quite grainy and choppy. Title                       : CinemaniaHDD Writing library             : libebml v1.3.10 + libmatroska v1.5.2, Video Yes, no, maybe, I don't know, can you repeat the question? Width                       : 1 920 pixels For the first 3 minutes of the Episode "Living Will" (3/6/2005), the bottom of the screen pages through a long list of fourteen alleged "producers". Commercial name             : Dolby Digital Plus Malcolm in the Middle T07E01 AMZN WEB-DL 1080p Latino [CNMNHDD].mkv Format : Matroska Format version : Version 4 File size : 2.37 GiB Duration : 21 min 57 s Overall bit rate : 15.4 Mb/s Movie name : Malcolm el de en medio T07E01 - CinemaniaHDD.Net Format                      : E-AC-3 Language                    : English Format settings             : CABAC / 4 Ref Frames Compression mode            : Lossy Height                      : 1 080 pixels Format                      : UTF-8 Codec ID                    : A_EAC3 In the episode when Francis runs away from military school, he and his father are talking in the van. Channel(s)                  : 6 channels Totalmente Gratis y subido en 1 Solo Link en Mega, Formato HD. Descargar todos los capítulos de Malcolm in the middle, Malcolm el de en medio, Malcolm en audio latino en formatos MP4 y MKV. En un mundo similar al nuestro pero habitado por brujas, osos guerreros y daimonions, una valiente joven... Hola tendrás una serie que se llama charmed? Aunt Helen died and the family prepares for the funeral, an occasion that doesn't go as planned. ID                          : 4 Malcolm in the Middle T07E01 AMZN WEB-DL 1080p Latino [CNMNHDD].mkv Go on YouTube and you should find playlists of episodes divided into parts to watch them full. Count of elements           : 366 Language                    : French There is a pair of headlights behind them following very close, but when seen from outside, the car is driving down the rain soaked road with no car behind them. "Malcolm in the Middle" Pilot subtitles. Bit rate                    : 224 kb/s I was about to watch another episode of MITM on Netflix, and I noticed the 'HD' symbol that has come up. Amazon.ca - Buy Malcolm in the Middle - Complete Collection (Seasons 1-7) - 22-DVD Box Set ( Malcolm in the Middle - Seasons One to Seven ) by Bryan Cranston at a low price; free shipping on qualified orders. Sampling rate               : 48.0 kHz Stream size                 : 14.2 KiB (0%) Title                       : Inglés [CinemaniaHDD] 1h 32m Malcolm in the Middle now available in 'HD' on Netflix! ID                          : 7 Title                       : Francés [CinemaniaHDD] Channel(s)                  : 2 channels An extended version of the pilot episode was released with the 'Complete First Season' DVD boxset. Format                      : E-AC-3 Frame rate                  : 31.250 FPS (1536 SPF) Codec ID/Info               : UTF-8 Plain Text Duration                    : 21 min 50 s Format                      : Matroska Duration                    : 21 min 57 s Forced                      : No Bit rate mode               : Constant Malcolm in the Middle T02E01 AMZN WEB-DL 1080p Latino [CNMNHDD].mkv Format : Matroska Format version : Version 4 File size : 2.40 GiB Duration : 22 min 23 s Overall bit rate : 15.3 Mb/s Movie name : Malcolm el de en medio T02E01 - CinemaniaHDD.Net "Malcolm in the Middle" Dinner Out subtitles. Codec ID                    : S_TEXT/UTF8 Duration                    : 21 min 52 s The series was first broadcast on January 9, 2000; it ended its six year run on May 14, 2006 after seven seasons and 151 episodes. A gifted young teen tries to survive life with his dimwitted, dysfunctional family. ID                          : 2   |  Color primaries             : BT.709   |  Stream size                 : 35.2 MiB (1%) Stream size                 : 2.20 GiB (93%) Temporadas: 1-2-3-4-5-6-7. Format/Info                 : Enhanced AC-3 AKA: Malcolm in the Middle, Fighting in Underpants, Малкольм у центрi уваги, Malcolm. Codec ID                    : A_EAC3 Malcolm in the Middle. Bit rate                    : 640 kb/s Format/Info                 : Enhanced AC-3 Bit depth                   : 8 bits Default                     : No ExtraTorrent.ag Gear up for Stephen King's upcoming adaptation with a look at some of our favorite photos from "The Stand," starring James Marsden, Whoopi Goldberg, and Alexander SkarsgÃ¥rd. دانلود مستقیم و رایگان سریال Malcolm in the Middle 2000 به همراه زیرنویس فارسی و کیفیت بالا Malcolm in the Middle 2000 ملکام این د میدل از رسانه بیا تو موویز Bia2Movies. Forced                      : No, Audio #3 Bit rate                    : 224 kb/s "Malcolm in the Middle" Dinner Out subtitles. 2019. Commercial name             : Dolby Digital Plus Emma Stone to Star in The Curse Showtime Comedy From Uncut Gems' Safdie Brothers and Nathan Fielder. 2019. 22 min Malcolm in the Middle is an American television sitcom created by Linwood Boomer for the Fox Broadcasting Company. ID                          : 1 Codec ID/Info               : UTF-8 Plain Text Malcolm In The Middle S04E12 MULTi 1080p WEB H264-NERO 00:22:00 | 1920×1080 @ 14646 kb/s | 23.98 fps(r) | ac3, 48000 Hz, stereo (fre) | 2.25 GiB. Amazon.ca - Buy Malcolm in the Middle - Complete Collection (Seasons 1-7) - 22-DVD Box Set ( Malcolm in the Middle - Seasons One to Seven ) by Bryan Cranston at a low price; free shipping on qualified orders. Default                     : No Count of elements           : 365 Format version              : Version 4 While we have a chance to see the world from Dewey's very special point of view, Reese acts weird. Color space                 : YUV Search for malcolm in the middle torrents. 720p-1080p AKA: Малкольм у центрi уваги, Malcolm in the Middle, Fighting in Underpants, Malcolm. Sampling rate               : 48.0 kHz Close. Generation Renovation Lake House S01E01 In the Middle … Duration                    : 21 min 57 s Frame rate mode             : Constant "Malcolm in the Middle" Funeral subtitles.   |  I am on season 4, and it did say 1080p when I clicked 'option' on my PS4. Generation Renovation Lake House S01E01 In the Middle of It WEBRip x264-LiGATE. TVLine.com Bit rate                    : 14.3 Mb/s Frame rate                  : 31.250 FPS (1536 SPF) The series was first broadcast on January 9, 2000; it ended its six year run on May 14, 2006 after seven seasons and 151 episodes. Especially since Hulu is USA only and no … For fans of the TV show Malcolm In The Middle. Forced                      : No, Text #3 Forced                      : No, Audio #2 Forced                      : No, Serie de TV (2000-2006). Malcolm in the Middle S05 E10 Hot Tub. Compression mode            : Lossy Sampling rate               : 48.0 kHz Codec ID                    : S_TEXT/UTF8 AKA: Malcolm in the Middle, Fighting in Underpants, Малкольм у центрi уваги, Malcolm. opening theme song: dpeliculashdmega@gmail.com. Archived. This was the first episode to air after the Academy Awards controversy over limiting to three, the number of "producers" who could win a best film Oscar. 1h 0m Malcolm in the Middle is an American television sitcom created by Linwood Boomer for the Fox Broadcasting Company. While we have a chance to see the world from Dewey's very special point of view, Reese acts weird. Hot Tub Time Machine 2 in HD 1080p, Watch Hot Tub Time Machine 2 in HD, Watch Hot Tub Time Machine 2 Online, Hot Tub Time Machine 2 Full Movie, Watch Hot Tub Time Machine 2 … File size                   : 2.37 GiB Frame rate                  : 31.250 FPS (1536 SPF) | | "Malcolm in the Middle" Funeral subtitles. Codec ID                    : S_TEXT/UTF8 Default                     : No Go on YouTube and you should find playlists of episodes divided into parts to watch them full. Malcolm In The Middle: 5 Times Lois & Hal Were Couple Goals (& 5 Times They Weren't), 14 December 2020 I'm surprised no one has ever made a torrent for the HD version of Malcolm In the middle. 95 votes, 24 comments. Stream size                 : 101 MiB (4%) Codec ID/Info               : UTF-8 Plain Text Aunt Helen died and the family prepares for the funeral, an occasion that doesn't go as planned. Format                      : E-AC-3 2010. Download Malcolm In The Middle » Malcolm In The Middle could be available for fast direct download Stream Malcolm In The Middle » Malcolm In The Middle could be available for streaming ... malcolm.in.the.middle.s04e18.multi.1080p.web.h264-nero[eztv.io].mkv » video tv Service kind                : Complete Main I never bothered to watch it. AKA: Malcolm in the Middle, Fighting in Underpants, Малкольм у центрi уваги, Malcolm "Malcolm in the Middle" Cheerleader subtitles. See reviews & details on a wide selection of Blu-ray & DVDs, both new & used. Forced                      : No, Text #2 Bit rate                    : 89 b/s صفحه‌اصلی ; فیلم. La empresa de un comercial inmobiliario lo manda... 5.0 AKA: Malcolm in the Middle, Fighting in Underpants, Малкольм у центрi уваги, Malcolm Format/Info                 : Advanced Video Codec La familia está compuesta por sus neuróticos padres Hal (Bryan Cranston) y Lois (Jane Kaczmarek), el hermano mayor Francis (Christopher Kennedy Masterson) y sus otros dos hermanos, Reese (Justin Berfield) y Dewey, Español Latino E-AC3 2.0 AMZN – Francés E-AC3 2.0 AMZN – Inglés E-AC3 5.1 AMZN, 0.0 Sitcom familiar que aborda los divertidos problemas y situaciones de una familia americana de clase media en la que el hijo Malcolm (Frankie Muniz) parece ser el único sensato… o al menos el único que da señales de cordura. TVovermind.com Bits/(Pixel*Frame)          : 0.288 Default                     : Yes You're not the boss of me now, You're not the boss of me now, You're not the boss of me now, and you're not so big. ID                          : 3 Encoded date                : UTC 2020-08-20 01:43:06 Stream size                 : 14.4 KiB (0%) View production, box office, & company info, Malcolm In The Middle: 5 Times Lois & Hal Were Couple Goals (& 5 Times They Weren't), 10 Things You Didn’t Know about David Anthony Higgins, Emma Stone to Star in The Curse Showtime Comedy From Uncut Gems' Safdie Brothers and Nathan Fielder. AKA: Малкольм у центрi уваги, Malcolm in the Middle, Fighting in Underpants, Malcolm. Comedy, Family. Frankie Muniz, Justin Berfield, Bryan Cranston, Jane Kaczmarek, Christopher Masterson, and Erik Per Sullivan in Malcolm in the Middle (2000) Default                     : Yes Format/Info                 : Enhanced AC-3 Codec ID                    : V_MPEG4/ISO/AVC Default                     : No Posted by 3 years ago. Compression mode            : Lossy 1 year ago. Duration                    : 21 min 52 s For an enhanced browsing experience, get the IMDb app on your smartphone or tablet. See reviews & details on a wide selection of Blu-ray & DVDs, both new & used. Duration                    : 21 min 57 s Add to Watchlist. Title                       : Francés [CinemaniaHDD] Screen Rant Format settings, CABAC      : Yes The Mandalorian (2019) Temporada 1 DSNY+ WEB-DL 4K [HDR] Latino – CMHDD, El señor de los anillos El retorno del Rey (2003) EXTENDED 4K REMUX Latino – CMHDD, Un mujeriego en apuros (1990) Full 1080p Latino, Los Picapiedra (1960-1966) [Serie Completa] REMUX 1080p Latino – CMHDD. Count of elements           : 518 Peluda Venganza (2010) 1080p Latino. Color range                 : Limited (2000–2006) TV Series | TV-PG | 22 min | Comedy, Family. The series received critical acclaim and won a Peabody Award, seven Emmy Awards, one Grammy Award, and was nominated for seven Golden … Transfer characteristics    : BT.709 1 year ago. TV Series I see the previews to this show when it was beginning to screen... and I must admit I hated it. Movie name                  : Malcolm el de en medio T07E01 - CinemaniaHDD.Net Format                      : UTF-8 | ID                          : 6 Benjaminlemann. Writing application         : mkvmerge v46.0.0 ('No Deeper Escape') 64-bit Continue reading → TV Shows 1080p, H264, in, Malcolm, Middle, Multi, NERO, S04E12, The, WEB. Ella es realista, enérgica. 10 Things You Didn’t Know about David Anthony Higgins, 10 December 2020 Forced                      : No, Text #1 Frame rate                  : 23.976 (24000/1001) FPS Watch Free on IMDb TV. Ahora puedes descargar peliculas por los mejores servidores gratis, incluyendo mega hd, podrás disfrutar de las películas hd eso no es todo, lo importante en hd full con opción de películas 1 link mega, Descargar Malcolm in the Middle (2006) Temporada 7 AMZN WEB-DL 1080p latino, Peluda Venganza (2010) Full HD 1080p Latino, Peluda Venganza (2010) REMUX 1080p Latino, Amor de Película (2019) WEB-DL 1080p Latino, His Dark Materials (2020) Temporada 2 AMZN WEB-DL 1080p Latino. Bit rate mode               : Constant ID                          : 5 malcolm.in.the.middle.s04e07.multi.1080p.web.h264-nero[eztv.io].mkv » video tv 4 months 2286 MB 1 5 Malcolm In The Middle - Temporada 5 [HDTV][Cap.501_522][Castellano][www.descargas2020.ORG][www.pctnew.ORG] » video tv Malcolm In The Middle RARE Extended Opening 1080p - YouTube 1h 30m Format                      : AVC Codec ID                    : A_EAC3 8 1 18. Channel layout              : L R Added to Watchlist. Él es romántico, tímido. I'm surprised no one has ever made a torrent for the HD version of Malcolm In the middle. Format profile              : High@L4 Stream size                 : 35.2 MiB (1%) "Malcolm in the Middle" Cheerleader subtitles. La empresa de un comercial inmobiliario lo manda a vender unas viviendas... Descargar Peluda Venganza (2010) Full HD 1080p Latino. Commercial name             : Dolby Digital Plus Episode Guide. Title                       : Español latino [CinemaniaHDD] Language                    : French Language                    : English 8/10. Chroma subsampling          : 4:2:0 Scan type                   : Progressive Bit rate                    : 102 b/s Bit rate mode               : Constant A lot of other Netflix shows do already have torrents, so I was curious. Después de giros y vueltas, juntos se van a... 5.0 Channel layout              : L R C LFE Ls Rs The animation clips shown briefly during the opening credits are from the Japanese anime Nazca (1998), an Saint Seiya-like anime involving Inca mythology instead of Greek.